#TITLE:Carbo-Pneumatic;
#SUBTITLE:;
#ARTIST:Infinity;
#TITLETRANSLIT:;
#SUBTITLETRANSLIT:;
#ARTISTTRANSLIT:;
#CREDIT:;
#BANNER:Carbo-Pneumatic-banner.png;
#BACKGROUND:Carbo-Pneumatic-bg.png;
#LYRICSPATH:;
#CDTITLE:;
#MUSIC:Carbo-Neumatic.mp3;
#MUSICLENGTH:91.645;
#OFFSET:-0.080;
#SAMPLESTART:76.765;
#SAMPLELENGTH:12.000;
#SELECTABLE:YES;
#BPMS:0.000=150.000;
#STOPS:;
#BGCHANGES:;
#FIRSTBEAT:16.000;

#LASTBEAT:226.000;

#SONGFILENAME:Songs/ERICth The 3rd/Carboneumatic/carboneumatic.sm;

#HASMUSIC:1;

#HASBANNER:1;


//---------------dance-single - MANIAC----------------
#NOTES:
     dance-single:
     MANIAC:
     hard:
     10:
     0.798,0.767,1.000,0.546,0.606,350.000,112.000,50.000,0.000,0.000:


0000
0000
0000
0000
,
0000
0000
0000
0000
,
0000
0000
0000
0000
,
0000
0000
0000
0000
,
0000
0010
0000
0100
0000
0001
0000
1000
,
0100
0010
0000
0010
0000
1000
0000
0001
,
1000
0100
0000
0100
0000
0100
0000
0100
,
0010
0000
0001
0000
0001
1000
0000
0100
1000
0100
1000
0100
1000
0000
0000
0000
,
2001
0000
3002
0000
1003
0200
0000
1300
0001
0000
0000
1020
0000
0000
0130
0000
,
0000
0000
0200
0000
0302
0010
0000
1003
0100
0000
0000
0120
0000
0000
1000
0030
,
0000
0000
2000
0000
3002
0100
0000
0103
0010
0000
0000
0210
0000
0000
1300
0000
,
0000
0000
2100
0000
0000
3010
0000
0000
0011
0000
0000
0000
0000
0000
0000
0000
,
2001
0000
3002
0000
1003
0200
0000
1300
0001
0000
0000
1020
0000
0000
0130
0000
,
0000
0000
0200
0000
0302
0010
0000
1003
0100
0000
0000
0120
0000
0000
1000
0030
,
0000
0000
2000
0000
3002
0100
0000
0103
0010
0000
0000
0210
0000
0000
1300
0000
,
0000
0000
2100
0000
0000
3010
0000
0000
0011
0000
0000
0000
0000
0000
0000
0000
,
0000
0000
1010
0000
0000
0110
0000
0000
0101
0000
0000
0110
0000
0000
0110
0000
,
0000
0000
1001
0000
0000
0101
0000
0000
1001
0000
0000
0110
0000
0000
1010
0000
,
0000
0000
1010
0000
0000
0110
0000
0000
0101
0000
0000
0110
0000
0000
0110
0000
,
0000
0000
1001
0000
0000
0101
0000
0000
2001
0000
0000
0000
3001
0000
0000
0000
,
0000
0000
1010
0000
0000
0110
0000
0000
0101
0000
0000
0110
0000
0000
0110
0000
,
0000
0000
1001
0000
0000
0101
0000
0000
1001
0000
0000
0110
0000
0000
1010
0000
,
0000
0000
1010
0000
0000
0110
0000
0000
0101
0000
0000
0110
0000
0000
0110
0000
,
0000
0000
1001
0000
0000
0101
0000
0000
2001
0000
0000
0000
3001
0000
0000
0000
,
1100
0000
0100
1000
0100
0000
0100
0010
0100
0000
0100
1000
0100
0000
0000
0000
,
0011
0000
0010
0001
0010
0000
0010
0100
0010
0000
0010
0001
0010
0000
0000
0000
,
1001
0000
1000
0001
1000
0000
1000
0001
1000
0000
1000
0001
1000
0000
0000
0000
,
0110
0000
0001
0100
0001
0000
0001
0100
0001
0000
0100
0010
0100
0000
0000
0000
,
1001
0000
1000
0100
1000
0000
0100
0010
0100
0000
0010
0001
0010
0000
0000
0000
,
0110
0000
1000
0001
1000
0000
0001
1000
0001
0000
1000
0001
1000
0000
0000
0000
,
0101
0000
0100
0010
0100
0000
1000
0100
1000
0000
0001
0100
0001
0000
0000
0000
,
0010
0001
0010
0000
0010
1000
0010
0000
0010
0001
0010
0000
0000
0000
0110
0000
,
1000
0100
1000
0010
1000
0001
0010
0001
,
0010
0100
0010
0100
1000
0001
1000
0010
,
0100
0001
0010
0010
0100
0001
0010
0010
,
0100
0001
0010
0010
0000
1100
0011
0000
,
1000
0100
0000
0100
1000
0000
1000
0100
1000
0100
1000
0000
1100
0000
0000
0000
,
0010
0001
0000
0001
0010
0000
0001
0010
0001
0010
0001
0000
0011
0000
0000
0000
,
1000
0001
0000
0001
1000
0000
1000
0001
1000
0001
1000
0000
1001
0000
0000
0000
,
0100
0001
0000
0001
0100
0000
0100
0001
0100
0000
0101
0000
0101
0000
0000
0000
,
2001
0000
3002
0000
1003
0200
0000
1300
0001
0000
0000
1020
0000
0000
0130
0000
,
0000
0000
0200
0000
0302
0010
0000
1003
0100
0000
0000
0120
0000
0000
1000
0030
,
0000
0000
2000
0000
3002
0100
0000
0103
0010
0000
0000
0210
0000
0000
1300
0000
,
0000
0000
2100
0000
0000
3010
0000
0000
0011
0000
0000
0000
0000
0000
0000
0000
,
2001
0000
3002
0000
1003
0200
0000
1300
0001
0000
0000
1020
0000
0000
0130
0000
,
0000
0000
0200
0000
0302
0010
0000
1003
0100
0000
0000
0120
0000
0000
1000
0030
,
0000
0000
2000
0000
3002
0100
0000
0103
0010
0000
0000
0210
0000
0000
1300
0000
,
0000
0000
2100
0000
0000
3010
0000
0000
0011
0000
0000
0000
0000
0000
0000
0000
,
0000
0000
1010
0000
0000
0110
0000
0000
0101
0000
0000
0110
0000
0000
0110
0000
,
0000
0000
1001
0000
0000
0101
0000
0000
1001
0000
0000
0110
0000
0000
1010
0000
,
0000
0000
1010
0000
0000
0110
0000
0000
0101
0000
0000
0110
0000
0000
0110
0000
,
0000
0000
1001
0000
0000
0101
0000
0000
2001
0000
0000
0000
3001
0000
0000
0000
,
0000
0000
1010
0000
0000
0110
0000
0000
0101
0000
0000
0110
0000
0000
0110
0000
,
0000
0000
1001
0000
0000
0101
0000
0000
1001
0000
0000
0110
0000
0000
1010
0000
,
0000
0000
1010
0000
0000
0110
0000
0000
0101
0000
0000
0110
0000
0000
0110
0000
,
0000
0000
1001
0000
0000
0101
0000
0000
2001
0000
0000
0000
3001
0000
0000
0000
,
2200
3300
0000
0000
,;

//---------------dance-single - Challenge----------------
#NOTES:
     dance-single:
     Challenge:
     challenge:
     8:
     0.558,0.555,0.251,0.436,0.306,295.000,23.000,40.000,0.000,0.000:


0000
0000
0000
0000
,
0000
0000
0000
0000
,
0000
0000
0000
0000
,
0000
0000
0000
0000
,
1000
0100
0010
1000
,
0100
0010
0010
0110
,
1000
0001
0000
0001
0000
0010
0000
0100
,
2000
0001
0000
0001
0000
0001
3000
0001
,
1100
0000
0100
0000
0000
0020
0000
0000
1000
0000
0000
0001
0030
0000
0100
0000
,
0000
0000
2000
0000
0000
0010
0000
0000
0100
0000
0000
3001
0000
0000
0100
0000
,
0000
0000
0200
0000
0000
0010
0000
0000
0001
0000
0000
0310
0000
0000
0010
0000
,
0000
0000
0020
0000
0000
0001
0000
0000
1030
0000
0000
0000
0110
0000
0000
0000
,
0000
0000
0002
0000
0000
0100
0000
0000
0100
0000
0000
0013
0000
0000
0001
0000
,
0000
0000
2000
0000
0000
0100
0000
0000
0010
0000
0000
3010
0000
0000
0100
0000
,
0000
0000
2000
0000
0000
0001
0000
0000
0010
0000
0000
3100
0000
0000
0010
0000
,
0000
0000
0002
0000
0000
1000
0000
0000
0013
0000
0000
0000
1001
0000
0000
0000
,
0000
0000
2000
0000
0000
0001
0000
0000
3010
0000
0000
0100
0000
0000
1000
0000
,
0000
0000
0020
0000
0000
0130
0000
0000
0020
0000
0000
0031
0000
0000
1000
0000
,
0000
0000
0200
0000
0000
0310
0000
0000
0200
0000
0000
1300
0000
0000
0001
0000
,
0000
0000
0200
0000
0000
0010
0000
0000
1300
0000
0000
0000
0011
0000
0000
0000
,
0000
0000
1002
0000
0000
0000
1000
0000
0100
0000
0000
0103
0000
0000
0000
0001
,
0000
0000
0102
0000
0000
1000
0000
0000
0010
0000
0000
0103
0000
0000
0100
0000
,
0000
0000
0201
0000
0000
1000
0000
0000
0010
0000
0000
1300
0000
0000
0100
0000
,
0000
0000
2000
0000
0000
3001
0000
0000
0102
0000
0000
0000
1003
0000
0000
0000
,
0001
0100
0010
0100
0001
1000
0100
0010
,
0100
1000
0001
0100
0010
0100
0001
1000
,
0100
0010
0100
1000
0001
1000
0010
0001
,
0010
1000
0100
0001
0100
1000
0010
1000
,
0100
1000
0010
1000
0001
0010
0001
0100
,
0001
0010
0001
1000
0010
0001
0010
1000
,
0100
1000
0001
0100
0001
1000
0001
0000
,
1001
1100
1001
0101
,
0001
0010
0001
0100
0001
0100
1000
0100
,
0001
0010
1000
0010
0001
0100
0010
1000
,
0100
0010
0001
0010
0100
1000
0100
0001
,
0100
1000
0010
1000
0010
0100
0001
0100
,
0001
1000
0001
1000
0100
0001
0100
0010
,
0100
1000
0100
0010
0001
1000
0010
0100
,
0001
0100
1000
0010
1000
0010
0100
0010
,
0100
0010
0100
0001
0100
0001
0101
0000
,
1001
0000
0100
0000
0000
0020
0000
0000
1000
0000
0000
0001
0030
0000
0100
0000
,
0000
0000
2000
0000
0000
0010
0000
0000
0100
0000
0000
3001
0000
0000
0100
0000
,
0000
0000
0200
0000
0000
0010
0000
0000
0001
0000
0000
0310
0000
0000
0010
0000
,
0000
0000
0020
0000
0000
0001
0000
0000
1030
0000
0000
0000
0110
0000
0000
0000
,
0000
0000
0002
0000
0000
0100
0000
0000
0100
0000
0000
0013
0000
0000
0001
0000
,
0000
0000
2000
0000
0000
0100
0000
0000
0010
0000
0000
3010
0000
0000
0100
0000
,
0000
0000
2000
0000
0000
0001
0000
0000
0010
0000
0000
3100
0000
0000
0010
0000
,
0000
0000
0002
0000
0000
1000
0000
0000
0013
0000
0000
0000
1001
0000
0000
0000
,
0000
0000
2000
0000
0000
0001
0000
0000
3010
0000
0000
0100
0000
0000
1000
0000
,
0000
0000
0020
0000
0000
0130
0000
0000
0020
0000
0000
0031
0000
0000
1000
0000
,
0000
0000
0200
0000
0000
0310
0000
0000
0200
0000
0000
1300
0000
0000
0001
0000
,
0000
0000
0200
0000
0000
0010
0000
0000
1300
0000
0000
0000
0011
0000
0000
0000
,
0000
0000
1002
0000
0000
0000
1000
0000
0100
0000
0000
0103
0000
0000
0000
0001
,
0000
0000
0102
0000
0000
1000
0000
0000
0010
0000
0000
0103
0000
0000
0100
0000
,
0000
0000
0201
0000
0000
1000
0000
0000
0010
0000
0000
1300
0000
0000
0100
0000
,
0000
0000
2000
0000
0000
3001
0000
0000
0102
0000
0000
0000
1003
0000
0000
0000
,
1002
0000
0003
0000;
